Fright Night (2011) | May Queen | communication - 470 Words
Free Files Download

Polar Bears: A Summer Odyssey (2012)


Polar Bears: A Summer Odyssey (2012)
Polar Bears: A Summer Odyssey (2012)
BRRip | 720x400 | .AVI/XviD @ 1599 Kbps | 50mn 5s | Audio: English MP3 192 kbps, 2 channels | Subs: None | 646 MiB
BluRay | 1280x720 | .MP4/AVC @ 1500 Kbps | 50mn 5s | Audio: English AAC 224 kbps, 6 channels | Subs: None | 620 MiB
Genre: Documentary

"Polar Bears in Hudson Bay struggle in a green world. Up close and Personal, originally shot all on native 3D."

General
Complete name : Polar.Bears.A.Summer.Odyssey.2012.BRRip.avi
Format
: AVI
Format/Info
: Audio Video Interleave
File size
: 646 MiB
Duration
: 50mn 5s
Overall bit rate : 1 804 Kbps
Video
ID : 0
Format
: MPEG-4 Visual
Format profile : [email protected]
Format settings, BVOP : No
Format settings, QPel : No
Format settings, GMC : No warppoints
Format settings, Matrix : Default (H.263)
Codec ID
: XVID
Codec ID/Hint : XviD
Duration
: 50mn 5s
Bit rate
: 1 599 Kbps
Width
: 720 pixels
Height
: 400 pixels
Display aspect ratio : 16:9
Frame rate
: 23.976 fps
Color space
: YUV
Chroma subsampling
: 4:2:0
Bit depth
: 8 bits
Scan type
: Progressive
Compression mode : Lossy
Bits/(Pixel*Frame)
: 0.232
Stream size
: 573 MiB (89%)
Audio
ID : 1
Format
: MPEG Audio
Format version : Version 1
Format profile : Layer 3
Mode
: Joint stereo
Mode extension : MS Stereo
Codec ID
: 55
Codec ID/Hint : MP3
Duration
: 50mn 5s
Bit rate mode : Constant
Bit rate
: 192 Kbps
Channel(s)
: 2 channels
Sampling rate : 48.0 KHz
Compression mode : Lossy
Stream size
: 68.8 MiB (11%)
Alignment
: Aligned on interleaves
Interleave, duration : 24 ms (0.58 video frame)
Interleave, preload duration : 24 ms
General
Complete name : Polar.Bears.A.Summer.Odyssey.2012.720p.BluRay.mp4
Format
: MPEG-4
Format profile : Base Media
Codec ID
: isom
File size
: 620 MiB
Duration
: 50mn 5s
Overall bit rate : 1 731 Kbps
Video
ID : 1
Format
: AVC
Format/Info
: Advanced Video Codec
Format profile : [email protected]
Format settings, CABAC : Yes
Format settings, ReFrames : 4 frames
Codec ID
: avc1
Codec ID/Info : Advanced Video Coding
Duration
: 50mn 5s
Bit rate
: 1 500 Kbps
Width
: 1 280 pixels
Height
: 720 pixels
Display aspect ratio : 16:9
Frame rate mode : Constant
Frame rate
: 23.976 fps
Color space
: YUV
Chroma subsampling
: 4:2:0
Bit depth
: 8 bits
Scan type
: Progressive
Bits/(Pixel*Frame)
: 0.068
Stream size
: 538 MiB (87%)
Writing library : x264 core 144 r2525M 40bb568
Encoding settings: cabac=1 / ref=4 / deblock=1:-1:-1 / analyse=0x3:0x113 / me=umh / subme=9 / psy=1 / psy_rd=1.00:0.15 / mixed_ref=1 / me_range=24 / chroma_me=1 / trellis=2 / 8x8dct=1 / cqm=0 / deadzone=21,11 / fast_pskip=1 / chroma_qp_offset=-3 / threads=32 / lookahead_threads=4 / sliced_threads=0 / nr=0 / decimate=1 / interlaced=0 / bluray_compat=0 / constrained_intra=0 / bframes=3 / b_pyramid=2 / b_adapt=1 / b_bias=0 / direct=1 / weightb=1 / open_gop=0 / weightp=2 / keyint=250 / keyint_min=25 / scenecut=40 / intra_refresh=0 / rc_lookahead=50 / rc=2pass / mbtree=1 / bitrate=1500 / ratetol=1.0 / qcomp=0.60 / qpmin=0 / qpmax=69 / qpstep=4 / cplxblur=20.0 / qblur=0.5 / vbv_maxrate=31250 / vbv_bufsize=31250 / nal_hrd=none / filler=0 / ip_ratio=1.40 / aq=3:1.00
Audio
ID : 2
Format
: AAC
Format/Info
: Advanced Audio Codec
Format profile : LC
Codec ID
: 40
Duration
: 50mn 5s
Bit rate mode : Constant
Bit rate
: 224 Kbps
Channel(s)
: 6 channels
Channel positions: Front: L C R, Side: L R, LFE
Sampling rate : 48.0 KHz
Compression mode : Lossy
Delay relative to video : -1s 0ms
Stream size
: 80.3 MiB (13%)
Text
ID : 3
Format
: Apple text
Codec ID
: text
Duration
: 50mn 5s
Bit rate mode : Constant
Bit rate
: 1 bps
Delay relative to video : -1s 0ms
Stream size
: 208 Bytes (0%)
Language
: English
Menu
00:00:00.043 : 00:00:00.000
00:07:05.885 : 00:07:05.842
00:12:28.916 : 00:12:28.873
00:18:31.153 : 00:18:31.110
00:26:59.452 : 00:26:59.409
00:33:01.356 : 00:33:01.313
00:37:48.100 : 00:37:48.057
00:42:21.457 : 00:42:21.414
Screenshots:
Polar Bears: A Summer Odyssey (2012)
Polar Bears: A Summer Odyssey (2012)
Polar Bears: A Summer Odyssey (2012)
Polar Bears: A Summer Odyssey (2012)

DOWNLOAD LINKS:
Buy Premium To Support Me & Get Resumable Support & Max Speed

Rapidgator.net:
Uploadable.ch:
Turbobit.net:
Uploaded.net:
Links are Interchangeable - No Password - Single Extraction
Update Date: 2017-10-30
Related Polar Bears: A Summer Odyssey (2012)
Build NAtive Cross-PlAtform Apps with AppcelerAtor: A beginner's guide for Web Developers
3D Art Direct - April 2015
CATEGORIES

Copyright © 2009-2014
Privacy policy - DMCA Policy - Contact Us - BT - BT - Subtitles - Free Download - Download