Abnormal psychology | SCARICA ADESSO | Joye (Zee Bangla)
Free Files Download

Racing Extinction (2015)


Racing Extinction (2015)
Racing Extinction (2015)
404p HDTV | 720x404 | .MP4/AVC @ 1023 Kbps | 1h 24mn | Audio: English AAC 132 kbps, 2 channels | Subs: English | 691 MiB
Genre: Documentary | Action | Adventure | Thriller

“Scientists predict we may lose half the species on the planet by the end of the century. They believe we have entered the sixth major extinction event in Earth's history. Number five took out the dinosaurs. This era is called the Anthropocene, or 'Age of Man', because the evidence shows that humanity has sparked this catastrophic loss. We are the only ones who can stop it as well. The Oceanic Preservation Society, the group behind the Academy Award® winning film THE COVE, is back for "Racing Extinction". Along with some new innovators, OPS will bring a voice to the thousands of species on the very edge of life. An unlikely team of activists is out to expose the two worlds endangering species across the globe. The first threat to the wild comes from the international trade of wildlife. Bogus markets are being created at the expense of creatures who have survived on this planet for millions of years. The other threat is all around us, hiding in plain sight. There's a hidden world that.”

General
Complete name : racing.extinction.404p.hdtv.mp4
Format : MPEG-4
Format profile : Base Media
Codec ID : isom
File size : 691 MiB
Duration : 1h 24mn
Overall bit rate mode : Variable
Overall bit rate : 1 148 Kbps
Video
ID : 1
Format : AVC
Format/Info : Advanced Video Codec
Format profile : [email protected]
Format settings, CABAC : Yes
Format settings, ReFrames : 5 frames
Codec ID : avc1
Codec ID/Info : Advanced Video Coding
Duration : 1h 23mn
Bit rate : 1 023 Kbps
Maximum bit rate : 5 785 Kbps
Width : 720 pixels
Height : 404 pixels
Display aspect ratio : 16:9
Frame rate mode : Constant
Frame rate : 29.970 fps
Color space : YUV
Chroma subsampling : 4:2:0
Bit depth : 8 bits
Scan type : Progressive
Bits/(Pixel*Frame) : 0.117
Stream size : 611 MiB (88%)
Writing library : x264 core 148 r2638 7599210
Encoding settings : cabac=1 / ref=5 / deblock=1:0:0 / analyse=0x3:0x113 / me=umh / subme=8 / psy=1 / psy_rd=1.00:0.00 / mixed_ref=1 / me_range=16 / chroma_me=1 / trellis=1 / 8x8dct=1 / cqm=0 / deadzone=21,11 / fast_pskip=1 / chroma_qp_offset=-2 / threads=12 / lookahead_threads=2 / sliced_threads=0 / nr=0 / decimate=1 / interlaced=0 / bluray_compat=0 / constrained_intra=0 / bframes=3 / b_pyramid=2 / b_adapt=2 / b_bias=0 / direct=3 / weightb=1 / open_gop=0 / weightp=2 / keyint=250 / keyint_min=25 / scenecut=40 / intra_refresh=0 / rc_lookahead=50 / rc=crf / mbtree=1 / crf=21.0 / qcomp=0.60 / qpmin=0 / qpmax=69 / qpstep=4 / ip_ratio=1.40 / aq=1:1.00
Encoded date : UTC 2015-12-03 05:20:31
Tagged date : UTC 2015-12-03 05:21:27
Color range : Limited
Matrix coefficients : BT.709
Audio
ID : 2
Format : AAC
Format/Info : Advanced Audio Codec
Format profile : LC
Codec ID : 40
Duration : 1h 23mn
Bit rate mode : Variable
Bit rate : 132 Kbps
Maximum bit rate : 169 Kbps
Channel(s) : 2 channels
Channel positions : Front: L R
Sampling rate : 48.0 KHz
Compression mode : Lossy
Stream size : 77.5 MiB (11%)
Language : English
Encoded date : UTC 2015-12-03 05:21:24
Tagged date : UTC 2015-12-03 05:21:27
Text
ID : 3
Format : Timed Text
Codec ID : tx3g
Duration : 1h 24mn
Bit rate mode : Variable
Bit rate : 28 bps
Stream size : 17.5 KiB (0%)
Language : English
Encoded date : UTC 2015-12-03 05:21:27
Tagged date : UTC 2015-12-03 05:21:27
PLEASE SUPPORT ME BY CLICK ONE OF MY LINKS IF YOU WANT BUYING OR EXTENDING YOUR ACCOUNT
Rapidgator.net
Nitroflare.com
Uploaded.net
Update Date: 2017-12-26
Related Racing Extinction (2015)
The Frankenstein Chronicles S01E04 HDTV x264-TLA
LiveLessions - Power Excel 2010 with MrExcel
CATEGORIES

Copyright © 2009-2014
Privacy policy - DMCA Policy - Contact Us - BT - BT - Subtitles - Free Download - Download